Сделать стартовой   |   Добавить в избранное
 Русский   |    English


The Ultimate PHP Training Bundle for Beginner to Advanced
The Ultimate PHP Training Bundle for Beginner to Advanced

The Ultimate PHP Training Bundle for Beginner to Advanced
WEBRip | English | MP4 | 1280 x 720 | AVC ~209 Kbps | 30 fps
AAC | 54.8 Kbps | 44.1 KHz | 2 channels | ~12.5 hours | 1.74 GB
Genre: Video Tutorial
Learn to build powerful web applications with this 12.5 hour course for beginner, intermediate and advanced students.


PHP is an invaluable tool to help web developers build powerful websites. Despite how PHP powerful it is, few web developers know how to use PHP to its full potential, which is where our Ultimate PHP Training Bundle comes in.

This training bundle combines two jam-packed PHP courses into one training bundle.

The bundle includes:

12.5 hours of video tutorials
90+ individual video lectures
2 Quizzes with 80 questions
Certificate of completion
Courses included with this bundle:

Learn PHP Programming for Beginners

These days, you're nowhere without a website, so there's a huge value to web development skills. PHP is one of the most widely-used scripting languages around, and this course will help you master the basics of the language so that you can build your own website, or help refine your company's. Discover the power of PHP as you take your website development skills to the next level.

During this 6.5 hour PHP beginner course, discover the fundamental concepts beginner PHP developers need to master. Your professional instructor combines practical lectures that ensure you have a solid grasp of the basics with coding examples that include exercise files so you get real hands-on practice.

Follow along as you learn the PHP syntax, development environment, and other basic concepts. Discover more advanced topics including database storage, object oriented development, using the standard PHP library, and basic SQL language commands.

Learn Advanced PHP Programming

During this 6 hour advanced PHP course, discover the power of PHP as you take your website development skills to the next level. Your professional instructor combines practical lectures that ensure you have a solid grasp of the concepts with coding examples that include exercise files so you get real hands-on practice.

Follow along as you learn functions, date and time manipulation, debugging and application logging. Discover the use of strings, REGEX, runtime error handling, the use of file resources, manipulating file date including reading and parsing data in a CSV file format.

Learn methods for database access, design patterns, using the mail function, PEAR, the PHP Extension and Application Repository, and cURL, a library that lets you make HTTP requests.

The advanced PHP training continues with topics on web services, introspection and reflection, Smarty Templates, sessions, different PHP frameworks, and some PHP best practices.

Are you ready to launch your PHP skills the next level?

*Updated July 2017: Close captions in English added.

Who this course is for:
Web developers
Anyone who wants to increase their existing PHP knowledge

What you'll learn
By the end of the course, you will have a solid knowledge of PHP
Discover how to use variables
How to debug PHP code
Learn how to read a configuration file
Discover the basics of using a PHP library
Common security threats
Learn functions, date and time, debugging and logging
Discover code reuse, feeding a function, return data from a function
Learn how to do string manipulation
Runtime error handling using PHP exception handling mechanism
Discover database connectivity methods
Send e-mail using SMTP
Learn the PHP extension and application repository - PEAR
Learn about Smarty Templates
Discover popular frameworks including CakePHP, Yii, Zend and Codelgniter

also You can find my other last:
https://rapu.world/search/?category_slug=&query=programming&language=&age=&author=ParRus&search=1

General
Complete name : uptb - 24.mp4
Format : MPEG-4
Format profile : Base Media
Codec ID : isom (isom/avc1)
File size : 5.23 MiB
Duration : 2 min 44 s
Overall bit rate mode : Variable
Overall bit rate : 267 kb/s
Encoded date : UTC 2014-01-16 19:22:22
Tagged date : UTC 2014-01-16 19:22:22

Video
ID : 1
Format : AVC
Format/Info : Advanced Video Codec
Format profile : [email protected]
Format settings : 3 Ref Frames
Format settings, CABAC : No
Format settings, RefFrames : 3 frames
Format settings, GOP : M=1, N=75
Codec ID : avc1
Codec ID/Info : Advanced Video Coding
Duration : 2 min 44 s
Bit rate : 209 kb/s
Maximum bit rate : 574 kb/s
Width : 1 280 pixels
Height : 720 pixels
Display aspect ratio : 16:9
Frame rate mode : Constant
Frame rate : 30.000 FPS
Color space : YUV
Chroma subsampling : 4:2:0
Bit depth : 8 bits
Scan type : Progressive
Bits/(Pixel*Frame) : 0.008
Stream size : 4.10 MiB (78%)
Writing library : Zencoder Video Encoding System
Encoded date : UTC 2014-01-16 19:21:10
Tagged date : UTC 2014-01-16 19:22:22

Audio
ID : 2
Format : AAC
Format/Info : Advanced Audio Codec
Format profile : LC
Codec ID : mp4a-40-2
Duration : 2 min 44 s
Bit rate mode : Variable
Bit rate : 54.8 kb/s
Maximum bit rate : 63.1 kb/s
Channel(s) : 2 channels
Channel positions : Front: L R
Sampling rate : 44.1 kHz
Frame rate : 43.066 FPS (1024 SPF)
Compression mode : Lossy
Stream size : 1.07 MiB (21%)
Encoded date : UTC 2014-01-16 19:22:22
Tagged date : UTC 2014-01-16 19:22:22

Screenshots

The Ultimate PHP Training Bundle for Beginner to Advanced

The Ultimate PHP Training Bundle for Beginner to Advanced

The Ultimate PHP Training Bundle for Beginner to Advanced
DOWNLOAD
(Buy premium account for maximum speed and resuming ability)








Просмотров: 10   Автор: Lantana 4 апреля 2019 Печать


Информация
Посетители, находящиеся в группе Гости, не могут оставлять комментарии к данной публикации.






Rambler's Top100